Results 1 to 1 of 1
  1.    #1  
    Pre makes Pretty videos. At least I'm quite fond of them for a year old phone. Problem I've ran into however is sending the videos via MMS. Far far too large for alot of carriers.. AT&T for example I believe the cutoff is 600k for a video. That's maybe 30 seconds at a very tiny resolution...

    So, with my girlfriend's Go-Phone (AT&T) and my Palm Pre I've attempted to size down 30 second clips. Alas I am unable to send them. The error the Pre gives me when I attempt to send a converted file is

    "Unable to send message
    Device is full. Delete files to clear space"

    This happens if I attempt to send to *any* carrier. I've tried Verizon, AT&T (my girlfriend's Go-Phone and my work iPhone G3), and I've tried to send it to myself.

    The file is 448k, plays fine locally in the Pre Video player, and I converted it on the Pre with the built in ffmpeg using the flags shown below. The original video is 1.68mb.

    Interestingly I can MMS myself the 1.7mb (24 second) video file, although it takes a little while. When it arrives Sprint delivers a image that says "Video too large to view on this device". Being sent to another carrier (AT&T) fails with a text from Sprint saying the MMS exceeded the other carrier's size limitation and may not have been delivered

    Code:
    ffmpeg -y -i CIMG0001.mp4 -r 20 -s 176x144 -b 100k -acodec libfaac -ac 1 -ar 8000 -ab 8k file.3gp
    Input and Output files
    Code:
    palm-webos-device 100PALM # pwd
    /media/internal/DCIM/100PALM
    palm-webos-device 100PALM # ls -l
    -rwxrwxrwx    1 root     root      1715198 Nov 18 18:41 CIMG0001.mp4
    -rwxrwxrwx    1 root     root       459229 Nov 21 02:39 file.3gp
    palm-webos-device 100PALM #

    Question is, does anyone know a successful way to scale down the Pre videos to send properly to MMS video phones, in particular the older ones that require 173x144 resolution and below 600k in size.

    Please note, I'm not looking for a "Just email them" workaround. I'd like to actually Text/MMS these videos. My goal is to get the video to go through the messaging app. Txt/MMS packages are bound togeather, Email/Data packages are extra to some of the people I'd like to Txt, so it has to go via MMS.

    --P.S. I'm aware my name isn't blurred. Its public info, and already in my Phone App patch

    Encoding Details from the Pre
    Code:
    Input #0, mov,mp4,m4a,3gp,3g2,mj2, from 'CIMG0001.mp4':
      Metadata:
        major_brand     : 3gp4
        minor_version   : 256
        compatible_brands: 3gp53gp4isom
      Duration: 00:00:24.86, start: 0.000000, bitrate: 551 kb/s
        Stream #0.0(und): Video: mpeg4, yuv420p, 640x480 [PAR 1:1 DAR 4:3], 420 kb/s, 15.08 fps, 1k tbr, 1k tbn, 30k tbc
        Stream #0.1(und): Audio: aac, 44100 Hz, mono, s16, 125 kb/s
    Output #0, 3gp, to 'file.3gp':
        Stream #0.0(und): Video: h263, yuv420p, 176x144 [PAR 12:11 DAR 4:3], q=2-31, 100 kb/s, 20 tbn, 20 tbc
        Stream #0.1(und): Audio: libfaac, 8000 Hz, mono, s16, 8 kb/s
    Stream mapping:
      Stream #0.0 -> #0.0
      Stream #0.1 -> #0.1
    Press [q] to stop encoding
    frame=  498 fps= 16 q=3.3 Lsize=     448kB time=24.58 bitrate= 149.5kbits/s dup=123 drop=1
    video:418kB audio:24kB global headers:0kB muxing overhead 1.494922%
    palm-webos-device 100PALM #
    Attached Images Attached Images
    Last edited by aramova; 11/21/2010 at 03:06 AM.

Posting Permissions